Скачать через торрент Альфа Alpha Фильм бесплатно в хорошем качестве torrent

Скачивайте на UnionPeer.org фильмы через торрент без регистрации. Новинки кино в хорошем качестве через торрент. На UnionPeer.org можно скачать через торрент фильмы 2014 и 2015 годов. Самые новые фильмы.

Скачать торрент Альфа Alpha бесплатно через .torrent фильм мультфильм сериал

Статистика раздачи
Размер:  2.15 GB   |    Зарегистрирован:  1 месяц 15 дней   |    .torrent скачан:  332 раза   |   
Раздают:  1  
   
загрузка...
 
Автор Сообщение

Galfimbul

avatar Galfimbul


Альфа /Alpha

Год выхода: 2018
Выпущено: США / Studio 8
Жанр: драма, приключения, семейный
Продолжительность: 01:36:30
Перевод: Профессиональный (многоголосый закадровый) iTunes
Субтитры: Русские (форс., полные), Украинские, Английские
Оригинальная аудиодорожка: Английская
Навигация по главам: Есть (16 глав)

Режиссер:
Альберт Хьюз / Albert Hughes

В ролях:
Коди Смит-МакФи, Наташа Мальте, Леонор Варела, Йоуханнес Хёйкьюр Йоуханнессон, Йенс Хультен, Мерседес Де Ла Зерда, Прия Раджаратнам, Спенсер Богерт, Патрик Флэнеган, Майкл Круз Даль

О фильме:
20 000 лет назад Земля была холодным и неуютным местом, в котором смерть подстерегала человека на каждом шагу, а жизнь зависела от того, удалось загнать добычу или нет. Молодой охотник из племени, которое по уровню жизни и культуры было одним из самых развитых на планете, оказывается один на один с враждебным миром, полным смертельных опасностей. Ему предстоит взглянуть в лицо своим страхам и найти дорогу домой. И, возможно, от исхода его путешествия зависит судьба всего человечества.



| | |

Файл
Качество: WEB-DLRip-AVC [Alpha.2018.1080p.WEB-DL.TeamHD]
Формат: MKV
Видео кодек: x264
Аудио кодек: AC3
Видео: 1152x480 (2,40:1), 23.976 fps, x264 ~2167 kbps avg, 0.163 bit/pixel
Аудио #1: 48 kHz, AC3 Dolby Digital, 3/2 (L,C,R,l,r) + LFE ch, ~384.00 kbps (RUS) - MVO
Аудио #2: 48 kHz, AC3 Dolby Digital, 2/0 (L,R) ch, ~192.00 kbps avg (UKR) - DUB
Аудио #3: 48 kHz, AC3 Dolby Digital, 3/2 (L,C,R,l,r) + LFE ch, ~384.00 kbps (ENG)
Формат субтитров: Softsub (.srt*)
Общее
Полное имя : D:Alfa_2018_WEB-DLRip-AVC_iT_by_Dalemake.mkv
Формат : Matroska
Версия формата : Version 4 / Version 2
Размер файла : 2,15 Гбайт
Продолжительность : 1 ч. 36 м.
Общий поток : 3190 Кбит/сек
Название фильма : [Alpha_2018_All_Films_by Dalemake]
Дата кодирования : UTC 2018-10-26 18:29:43
Программа кодирования : mkvmerge v7.8.0 ('River Man') 32bit built on Apr 3 2015 12:11:22
Библиотека кодирования : libebml v1.3.1 + libmatroska v1.4.2
DURATION : 01:36:30.368000000
NUMBER_OF_FRAMES : 180949
NUMBER_OF_BYTES : 138968832
_STATISTICS_WRITING_APP : mkvmerge v7.8.0 ('River Man') 32bit built on Apr 3 2015 12:11:22
_STATISTICS_WRITING_DATE_UTC : 2018-10-26 18:29:43
_STATISTICS_TAGS : BPS DURATION NUMBER_OF_FRAMES NUMBER_OF_BYTES

Видео
Идентификатор : 1
Формат : AVC
Формат/Информация : Advanced Video Codec
Профиль формата : High@L4.1
Параметр CABAC формата : Да
Параметр ReFrames формата : 12 кадров
Идентификатор кодека : V_MPEG4/ISO/AVC
Продолжительность : 1 ч. 36 м.
Битрейт : 2167 Кбит/сек
Ширина : 1152 пикселя
Высота : 480 пикселей
Соотношение сторон : 2,40:1
Частота кадров : 23,976 кадра/сек
Цветовое пространство : YUV
Субдискретизация насыщенности : 4:2:0
Битовая глубина : 8 бит
Тип развёртки : Прогрессивная
Бит/(Пиксели*Кадры) : 0.163
Размер потока : 1,46 Гбайт (68%)
Заголовок : [Alpha_2018_All_Films_by Dalemake]
Библиотека кодирования : x264 core 157 r2935 545de2f
Настройки программы : cabac=1 / ref=12 / deblock=1:-2:-2 / analyse=0x3:0x133 / me=umh / subme=10 / psy=1 / psy_rd=1.00:0.00 / mixed_ref=1 / me_range=48 / chroma_me=1 / trellis=2 / 8x8dct=1 / cqm=0 / deadzone=21,11 / fast_pskip=1 / chroma_qp_offset=-4 / threads=6 / lookahead_threads=1 / sliced_threads=0 / nr=0 / decimate=0 / interlaced=0 / bluray_compat=0 / constrained_intra=0 / bframes=10 / b_pyramid=2 / b_adapt=2 / b_bias=0 / direct=1 / weightb=1 / open_gop=0 / weightp=2 / keyint=240 / keyint_min=23 / scenecut=40 / intra_refresh=0 / rc_lookahead=60 / rc=crf / mbtree=0 / crf=17.8 / qcomp=0.60 / qpmin=0 / qpmax=69 / qpstep=4 / vbv_maxrate=50000 / vbv_bufsize=62500 / crf_max=0.0 / nal_hrd=none / filler=0 / ip_ratio=1.40 / pb_ratio=1.35 / aq=1:1.00
Default : Да
Forced : Нет

Аудио #1
Идентификатор : 2
Формат : AC-3
Формат/Информация : Audio Coding 3
Расширение режима : CM (complete main)
Параметр Endianness формата : Big
Идентификатор кодека : A_AC3
Продолжительность : 1 ч. 36 м.
Вид битрейта : Постоянный
Битрейт : 384 Кбит/сек
Каналы : 6 каналов
Расположение каналов : Front: L C R, Side: L R, LFE
Частота : 48,0 КГц
Битовая глубина : 16 бит
Метод сжатия : С потерями
Размер потока : 265 Мбайт (12%)
Заголовок : MVO - iTunes Russia
Язык : Russian
Default : Да
Forced : Нет

Аудио #2
Идентификатор : 3
Формат : AC-3
Формат/Информация : Audio Coding 3
Расширение режима : CM (complete main)
Параметр Endianness формата : Big
Идентификатор кодека : A_AC3
Продолжительность : 1 ч. 36 м.
Вид битрейта : Постоянный
Битрейт : 192 Кбит/сек
Каналы : 2 канала
Расположение каналов : Front: L R
Частота : 48,0 КГц
Битовая глубина : 16 бит
Метод сжатия : С потерями
Размер потока : 133 Мбайт (6%)
Заголовок : Dub
Язык : Ukrainian
Default : Нет
Forced : Нет

Аудио #3
Идентификатор : 4
Формат : AC-3
Формат/Информация : Audio Coding 3
Расширение режима : CM (complete main)
Параметр Endianness формата : Big
Идентификатор кодека : A_AC3
Продолжительность : 1 ч. 36 м.
Вид битрейта : Постоянный
Битрейт : 384 Кбит/сек
Каналы : 6 каналов
Расположение каналов : Front: L C R, Side: L R, LFE
Частота : 48,0 КГц
Битовая глубина : 16 бит
Метод сжатия : С потерями
Размер потока : 265 Мбайт (12%)
Заголовок : Original
Язык : English
Default : Нет
Forced : Нет

Текст #1
Идентификатор : 5
Формат : UTF-8
Идентификатор кодека : S_TEXT/UTF8
Идентификатор кодека/Информация : UTF-8 Plain Text
Заголовок : Forced
Язык : Russian
Default : Да
Forced : Да

Текст #2
Идентификатор : 6
Формат : UTF-8
Идентификатор кодека : S_TEXT/UTF8
Идентификатор кодека/Информация : UTF-8 Plain Text
Заголовок : Full
Язык : Russian
Default : Нет
Forced : Нет

Текст #3
Идентификатор : 7
Формат : UTF-8
Идентификатор кодека : S_TEXT/UTF8
Идентификатор кодека/Информация : UTF-8 Plain Text
Заголовок : Full
Язык : Ukrainian
Default : Нет
Forced : Нет

Текст #4
Идентификатор : 8
Формат : UTF-8
Идентификатор кодека : S_TEXT/UTF8
Идентификатор кодека/Информация : UTF-8 Plain Text
Заголовок : Full
Язык : English
Default : Нет
Forced : Нет

Меню
00:00:00.000 : en:1
00:07:43.713 : en:2
00:10:56.071 : en:3
00:16:56.639 : en:4
00:21:43.299 : en:5
00:25:54.967 : en:6
00:32:36.618 : en:7
00:38:19.251 : en:8
00:42:37.383 : en:9
00:47:54.323 : en:10
00:54:07.404 : en:11
00:59:27.222 : en:12
01:07:08.975 : en:13
01:14:08.727 : en:14
01:18:56.264 : en:15
01:25:42.294 : en:16
Источник http://BlaTor.org

Трекер:  [ 26-Окт-2018 22:40 ]

  

Скачать .torrent

Размер .torrent файла 11 KB


Размер: 2.15 GB
Хэш (hash) релиза: b4ee2268084c2ef7bf3efe95d276a5a8571324e1
Подписка на обновления:

Торренты, похожие на Альфа Alpha скачать торрент

Форум Название Автор Размер S L Добавлен
Зарубежные фильмы 2016-2018 (Новинки зарубежного кино) ·%· Альфа / Alpha (2018) BDRip от ExKinoRay | iTunes Galfimbul 15222727281.42 GB 0 0 1542700334

10:52

20-Ноя-18

Зарубежные фильмы 2016-2018 (Новинки зарубежного кино) ·%· Альфа / Alpha (2018) BDRip 1080p от HELLYWOOD | iTunes Galfimbul 74494673886.94 GB 0 0 1542642017

18:40

19-Ноя-18

Зарубежные фильмы 2016-2018 (Новинки зарубежного кино) ·%· Альфа / Alpha (2018) BDRip-AVC от ExKinoRay | iTunes Galfimbul 21530185892.01 GB 0 0 1542487810

23:50

17-Ноя-18

Зарубежные фильмы 2016-2018 (Новинки зарубежного кино) ·%· Альфа / Alpha (2018) BDRemux 1080p от селезень | iTunes Galfimbul 1842109052217.16 GB 0 0 1542474632

20:10

17-Ноя-18

Зарубежные фильмы 2016-2018 (Новинки зарубежного кино) ·%· Альфа / Alpha (2018) BDRip-AVC от HELLYWOOD | iTunes Galfimbul 22971989432.14 GB 0 0 1542458432

15:40

17-Ноя-18

Зарубежные фильмы 2016-2018 (Новинки зарубежного кино) ·%· Альфа / Alpha (2018) BDRip-AVC от OlLanDGroup | iTunes Galfimbul 15213514331.42 GB 0 0 1542448814

13:00

17-Ноя-18

Зарубежные фильмы 2016-2018 (Новинки зарубежного кино) ·%· Альфа / Alpha (2018) HDRip от Kaztorrents | КПК | iTunes Galfimbul 384740586367 MB 0 0 1541957445

20:30

11-Ноя-18

Зарубежные фильмы 2016-2018 (Новинки зарубежного кино) ·%· Альфа / Alpha (2018) BDRip 1080p от селезень | iTunes Galfimbul 92812211708.64 GB 0 0 1541936492

14:41

11-Ноя-18

Зарубежные фильмы 2016-2018 (Новинки зарубежного кино) ·%· Альфа / Alpha (2018) WEB-DLRip от Scarabey | iTunes Galfimbul 786477056750 MB 0 0 1540737182

17:33

28-Окт-18

Зарубежные фильмы 2016-2018 (Новинки зарубежного кино) ·%· Альфа / Alpha (2018) WEB-DLRip от MegaPeer | iTunes Galfimbul 782041382746 MB 0 0 1540546808

12:40

26-Окт-18

Зарубежные фильмы 2016-2018 (Новинки зарубежного кино) ·%· Альфа / Alpha (2018) WEB-DLRip от GeneralFilm | iTunes Galfimbul 785203200749 MB 0 0 1540529423

07:50

26-Окт-18

Зарубежные фильмы 2016-2018 (Новинки зарубежного кино) ·%· Альфа / Alpha (2018) WEB-DL 1080p от TeamHD | iTunes Galfimbul 39476923853.68 GB 0 0 1540498372

23:12

25-Окт-18

Зарубежные сериалы ·· Люди Альфа / Alphas / Сезон: 1 / Серии: 1-11 (11) (Ник Копус, Мэттью Хатингс) [2011, США, фантастика, боевик, триллер, драма, WEB-DL(AMZN) 1080p] MVO (LostFilm) Galfimbul 4342991294340.45 GB 0 0 1514195740

12:55

25-Дек-17

Зарубежные сериалы ·· Люди Альфа / Alphas / Сезон: 2 / Серии: 1-13 (13) (Ник Копус, Мэттью Хатингс) [2012, США, фантастика, боевик, триллер, драма, WEB-DL(AMZN) 1080p] MVO (LostFilm) Galfimbul 4855623250145.22 GB 0 0 1514195726

12:55

25-Дек-17

Зарубежные сериалы ·· Люди Альфа / Alphas / Сезон: 1 / Серии: 1-24 из 24 (Ник Копус, Мэттью Хатингс, Лесли Либман) [2011, фантастика, боевик, триллер, драма, WEB-DLRip] MVO (LostFilm) + Original Galfimbul 1290492723212.02 GB 0 0 1423276477

05:34

7-Фев-15

Зарубежные сериалы ·· Люди Альфа / Alphas / Сезон 1, Серии 1-11 (11) (Зак Пенн) [2011, фантастика, боевик, триллер, 1080i HDTV] (DD 5.1 LostFilm) L 5318831647649.54 GB 0 0 1336795620

07:07

12-Май-12

Зарубежные сериалы ·· Люди Альфа / Alphas / Сезон 1 / Серии 1-11 из 11 (Джек Бендер, Ник Копус, Карен Гавиола) [2011 г., фантастика, боевик, триллер, драма, WEB-DLRip] MVO (LostFilm) + Original Phoenix 96763421339.01 GB 0 0 1317557978

15:19

2-Окт-11

Зарубежные сериалы ·· Люди Альфа / Alphas / Сезон: 1 / Серии: 1-11 из 11 (Джек Бендер, Ник Копус, Карен Гавиола) [2011, фантастика, боевик, триллер, драма, WEB-DLRip] (LostFilm) Phoenix 57590435845.36 GB 0 0 1317282493

10:48

29-Сен-11

Зарубежные сериалы ·· Люди Альфа / Alphas / Сезон: 1 / Серии: 1-11 из 11 (Джек Бендер, Ник Копус, Карен Гавиола) [2011, фантастика, боевик, триллер, драма, WEB-DL 720p] MVO [LostFilm] Phoenix 1839985864517.14 GB 0 0 1317282235

10:43

29-Сен-11

Еще никто не оставлял запись к записи скачать торрент Альфа Alpha . Будь первым!

!Обратная связь